#TITLE:梦会成真;
#SUBTITLE:;
#ARTIST:Mina;
#TITLETRANSLIT:;
#SUBTITLETRANSLIT:;
#ARTISTTRANSLIT:;
#CREDIT:;
#BANNER:v-logo.jpg;
#BACKGROUND:v.jpg;
#LYRICSPATH:;
#CDTITLE:Lan.png;
#MUSIC:v.mp3;
#OFFSET:-0.040;
#SAMPLESTART:100.000;
#SAMPLELENGTH:12.000;
#SELECTABLE:YES;
#BPMS:0.000=141.960;
#STOPS:;
#BGCHANGES:;
// cache tags:
#FIRSTBEAT:28.000;
#LASTBEAT:288.000;
#SONGFILENAME:Songs/SDO 2/v/v.sm;
#HASMUSIC:1;
#HASBANNER:1;
#MUSICLENGTH:125.953;
// end cache tags

//---------------dance-single - sky----------------
#NOTES:
     dance-single:
     sky:
     Hard:
     10:
     0.953,1.000,1.000,0.000,0.599,631.000,209.000,0.000,0.000,0.000:

0000
0000
0000
0000
,
0000
0000
0000
0000
,
0000
0000
0000
0000
,
0000
0000
0000
0000
,
0000
0000
0000
0000
,
0000
0000
0000
0000
,
0000
0000
0000
0000
,
1000
1000
1000
1000
,
0100
0100
0100
0100
,
0010
0010
0010
0010
,
0001
0001
0001
0001
,
0100
0010
0100
0010
0100
0010
0100
0000
,
0001
1000
0001
1000
0001
1000
0001
0000
,
0010
0100
0010
0100
0010
0100
0010
0000
,
1000
0100
0010
0001
1000
0100
0010
0001
1000
0100
0010
0001
1000
0100
0010
0001
1000
0001
0010
0100
1000
0001
0010
0100
1000
0001
0010
0100
1000
0001
0010
0100
,
1000
0000
0110
0000
0011
0000
1001
0000
1000
0100
1000
0100
1000
0100
1000
0100
,
0011
0001
0110
1000
0110
0001
1100
0000
,
1001
0000
0010
0000
1100
0000
0010
0000
0001
0010
0001
0010
0001
0010
0001
0010
,
1100
0010
0110
0001
1100
0010
0011
0000
,
1001
0000
0010
0000
0101
0000
0010
0000
1000
0010
1000
0010
1000
0010
1000
0010
,
1100
0001
0101
1000
0011
0010
1100
0000
,
1001
0000
0100
0000
0110
0000
1000
0000
0001
0100
0001
0100
0001
0100
0001
0100
,
0001
0010
0100
1000
0001
0010
0100
1000
0011
1000
0100
0010
0001
1000
0100
0010
,
1001
0100
0010
0100
1001
0000
0000
0000
0011
0000
1100
0000
0011
0000
0000
0000
,
1010
0000
0100
0000
0011
0000
0100
0000
1100
0000
0001
0010
0001
0010
0001
1000
,
0001
0000
0010
0000
1100
0000
0010
0000
0101
0000
1000
0100
1000
0100
1000
0001
,
1000
0000
0010
0000
0101
0000
0010
0000
1001
0000
0010
0100
0010
0100
0010
0100
,
0001
0011
1000
0110
1001
0000
1001
0000
,
1010
0000
0100
0000
0110
0000
1000
0000
0011
0000
0100
0010
1000
0010
1000
0001
,
0100
0000
1100
0000
0010
0000
0011
0000
1000
0000
0001
0100
0010
0100
0001
0010
,
1000
0000
0100
0000
1010
0000
0001
0000
0011
0000
1000
0100
0010
0100
1000
0001
,
1000
0100
0010
0001
1000
0100
0010
0001
1100
0001
0010
0100
1000
0001
0010
0100
,
1001
0100
1010
0010
0101
0001
0110
0001
,
1100
0010
1100
0010
1001
0110
0011
1100
,
1001
0010
0110
0010
0101
0001
1010
0100
,
1010
0001
0110
1000
0101
1010
0101
0110
,
1001
0001
0110
0100
1010
0010
1100
0001
,
1010
0100
0011
0100
1010
0011
1100
0011
,
1001
0110
0001
1010
0100
0011
1100
0010
,
1001
0010
0100
1000
0001
0010
0100
1000
0011
1000
0100
0010
0001
1000
0100
0010
,
1001
0010
1100
0010
1010
0001
1100
0001
,
0101
0001
1010
0100
0011
1010
0101
0110
,
1001
0010
0101
0100
1001
0010
0110
0001
,
1010
0001
1100
0010
1001
0011
1100
1001
,
1010
0100
1001
0100
1001
0010
0101
0101
,
1010
0001
1100
0001
1010
0101
0011
1100
,
1010
0001
0101
0010
1001
0100
0011
1100
,
0010
0100
0010
0100
0010
0100
0010
0100
1001
0010
0100
1000
0100
0010
0001
0010
,
1100
0011
1100
0011
1100
0000
0110
1001
,
1001
0010
1100
0010
0101
0010
1001
0000
,
0011
1100
0011
1100
0011
0000
1010
0101
,
0001
1100
0011
0001
1100
0110
1001
0000
,
1001
0010
1100
0000
1001
0100
0011
0000
,
0011
0010
1010
0000
1100
0010
0101
1001
,
0110
0000
0010
0000
0011
0000
0100
0000
1100
0000
0001
1000
0001
1000
0001
1000
,
0011
0000
0100
0000
0110
0000
0100
0000
0011
0000
1000
0001
1000
0001
1000
0001
,
1100
0010
0101
0010
1100
0000
0011
0100
,
1001
0010
0110
1000
1010
0101
1001
0000
,
0011
0100
1010
0001
0110
0000
1100
0010
,
1001
0100
0011
0001
1100
0011
1100
0110
,
0001
1100
0001
0000
1000
0011
1000
0000
,
0010
1100
0001
0000
1000
0011
0100
1100
,
0011
0000
1000
0000
0101
0000
1000
0000
1001
0000
0100
0010
0100
0010
0100
0010
,
0001
0010
0100
1000
1000
0100
0010
0001
1100
0001
0010
0100
1000
0001
0010
0100
,
1001
0000
0010
0000
0101
0000
1000
0000
0011
0000
1000
0100
1000
0100
1000
0100
,
1001
0000
0100
0000
1010
0000
0001
0000
1100
0000
0001
0010
0001
0010
0001
0010
,
1001
0000
0100
0000
0011
0000
1000
0000
0101
0000
0010
0100
0010
0100
0010
0100
,
1001
0010
0110
1000
0011
0000
0011
0000
,
1100
0000
0100
0000
0011
0000
0010
0000
1100
0000
0001
0100
0001
0100
0001
0100
,
0011
0000
0010
0000
1100
0000
1000
0000
0101
0000
1000
0010
1000
0010
1000
0010
,
1001
0000
0010
0000
1100
0000
0010
0000
1100
0000
0010
0100
0001
0100
0010
0100
,
0001
1000
0001
1000
0001
1000
0001
1000
0001
1000
0001
1000
0001
1000
0001
1000
0001
0100
0010
0100
0010
0100
0010
0100
0010
0100
0010
0100
0010
0100
0010
0100
,
1001
0000
0000
0000
;
